Плеер TEXET T-900 обзор, прошивки скачать

[nggallery id=3]

Данный плеер — это полностью сенсорный, с размером экрана 480х272 пикс. 4.3 дюймовый дисплей. Имеет 8 ГБ встроенной памяти и слот под карты памяти формата micro SD.

Плеер TEXET T-900 читает следующие форматы:

Audio:

MP3, WAVE, WMA, FLAC, ACC, OGG,APE

Video:

AVI (XViD, DViX), MP4, АДМю Но не со всеми кодеками.

Вот данные «родного» видео файла, который расположен на плеере в качестве демонстрации:

General
Complete name                    : F:\sample_video.avi
Format                           : AVI
Format/Info                      : Audio Video Interleave
File size                        : 50.8 MiB
Duration                         : 3mn 24s
Overall bit rate                 : 2 078 Kbps
Writing application              : Lavf52.33.0

Video
ID                               : 0
Format                           : MPEG-4 Visual
Format profile                   : Simple@L3
Format settings, BVOP            : No
Format settings, QPel            : No
Format settings, GMC             : No warppoints
Format settings, Matrix          : Default (H.263)
Codec ID                         : XVID
Codec ID/Hint                    : XviD
Duration                         : 3mn 24s
Bit rate                         : 1 940 Kbps
Width                            : 640 pixels
Height                           : 360 pixels
Display aspect ratio             : 2.35:1
Frame rate                       : 23.976 fps
Color space                      : YUV
Chroma subsampling               : 4:2:0
Bit depth                        : 8 bits
Scan type                        : Progressive
Bits/(Pixel*Frame)               : 0.351
Stream size                      : 47.4 MiB (93%)
Writing library                  : XviD 1.2.1 (UTC 2008-12-04)

Audio
ID                               : 1
Format                           : MPEG Audio
Format version                   : Version 1
Format profile                   : Layer 3
Codec ID                         : 55
Codec ID/Hint                    : MP3
Duration                         : 3mn 24s
Bit rate mode                    : Constant
Bit rate                         : 128 Kbps
Channel(s)                       : 2 channels
Sampling rate                    : 32.0 KHz
Stream size                      : 3.13 MiB (6%)
Alignment                        : Aligned on interleaves
Interleave, duration             : 36 ms (0.86 video frame)
Writing library                  : LAME3.98

Соответственно, если вы захотите смотреть на этом player’e видео, конвертируйте ваши файлы примерно с такими показателями.

Далее идём к звуку. Звук через два встроенных динамика неплохой, хотя и не очень громкий. В наушниках, звучание просто отличное. Громкое насыщенное и без искажений.

Диктофон. Диктофон пишет в формате .WAVE со скоростью 45 kbps с очень маленькой громкостью. Отверстие микрофона я так и не нашёл. Но покрутив записывая, я понял что микрофон находиться где то с правой стороны, где и все разъёмы. Что касается записи с радио, это сделать не удалось, так как плеер не поймал ни одной станции. Так как в месте тестирования сильные помехи, возможно на открытой местности (на улице) радио будет ловить волны.

Fm-трансмиттер, заявленных 10 метров не оправдал. Он с трудом передавал сигнал лежав на музыкальном центре. И то выдавал помехи, пока не был размещён ближе к самой антенне муз. центра.

Текстовые файлы и электронные книги. Текст в формате .TXT плеер читает превосходно. Ест возможность менять цвет фона и размер шрифта .PDF файлы он не читает. Остальные форматы электронных книг не проверял. Так как основным форматов инструкций и эл. книг является именно .PDF.

Что касается тормозов, пока замечено не было. Но на всякий случай, выкладываю файлы прошивок.

Восстановление прошивки

Версия прошивки 1.13

Версия прошивки 1.14

Версия прошивки 1.16

Версия прошивки 1.17

Версия прошивки 1.19

Версия прошивки 1.22

Скачать инструкцию к плееру Texet t-900

В плеере нет игр.

Нельзя закачивать\ставить свои темы.

В плеере нет TV приёмника.

Плеер имеет разъёмы для: тв-выхода, наушников, USB, и слот под карту микро SD.

Комплектация: Плеер, наушники, USB кабель, кожаный чехол, стилус, AV-кабель, инструкция.

Всё это умещается в небольшой компактной коробочке.